web analytics

Categories

The.Gift.2015.1080p.BluRay.x264-DRONES

Posted by on Oct 25th, 2015 SCENE
>>Download The.Gift.2015.1080p.BluRay.x264-DRONES Full, Fast, Free, Anonymous, Secure, Untraceable download with Usenet
The Gift

iMDBNFO – Sample 1 , 2Video Sample

A young married couple’s lives are thrown into a harrowing tailspin when an acquaintance from the husband’s past brings mysterious gifts and a horrifying secret to light after more than 20 years.


Nitroflare
http://nitroflare.com/view/521262247B0A36B/DDLValley.cool_The.Gift.2015.1080p.BluRay.x264-DRONES.mkv

Openload
Pending
Uploaded
http://uploaded.net/file/c2zphh2q/DDLValley.cool_The.Gift.2015.1080p.BluRay.x264-DRONES_1.5gb-splits.part1.rar
http://uploaded.net/file/11ihq2qh/DDLValley.cool_The.Gift.2015.1080p.BluRay.x264-DRONES_1.5gb-splits.part2.rar
http://uploaded.net/file/l6766yhy/DDLValley.cool_The.Gift.2015.1080p.BluRay.x264-DRONES_1.5gb-splits.part3.rar
http://uploaded.net/file/xo2wsapi/DDLValley.cool_The.Gift.2015.1080p.BluRay.x264-DRONES_1.5gb-splits.part4.rar
http://uploaded.net/file/2r6yy60h/DDLValley.cool_The.Gift.2015.1080p.BluRay.x264-DRONES_1.5gb-splits.part5.rar
http://uploaded.net/file/ttw8gcja/DDLValley.cool_The.Gift.2015.1080p.BluRay.x264-DRONES_1.5gb-splits.part6.rar
Rapidgator
http://rapidgator.net/file/41d3db00124138f92f5b2a32ec9eb51e/DDLValley.cool_The.Gift.2015.1080p.BluRay.x264-DRONES_1.5gb-splits.part1.rar.html
http://rapidgator.net/file/1ea81f21454492ba49a2f9223667c040/DDLValley.cool_The.Gift.2015.1080p.BluRay.x264-DRONES_1.5gb-splits.part2.rar.html
http://rapidgator.net/file/457f9c84f86ea18427a0051708dddd40/DDLValley.cool_The.Gift.2015.1080p.BluRay.x264-DRONES_1.5gb-splits.part3.rar.html
http://rapidgator.net/file/0307fb3cb5f1fbcf000a8bd8c4091023/DDLValley.cool_The.Gift.2015.1080p.BluRay.x264-DRONES_1.5gb-splits.part4.rar.html
http://rapidgator.net/file/6146a883d8de2c5e68caca7c4a10dacc/DDLValley.cool_The.Gift.2015.1080p.BluRay.x264-DRONES_1.5gb-splits.part5.rar.html
http://rapidgator.net/file/db96518633ad1ead0363c06c288d1e1c/DDLValley.cool_The.Gift.2015.1080p.BluRay.x264-DRONES_1.5gb-splits.part6.rar.html
Go4UP (Filecloud,Zippyshare,1fichier,180upload,hugefiles,solidfiles & BillionUploads)
http://go4up.com/dl/4425abe36177
http://go4up.com/dl/a2967c82e37a
http://go4up.com/dl/ca3456893b38
http://go4up.com/dl/7645ce83137e
http://go4up.com/dl/88f46403912c
http://go4up.com/dl/23d3cc5f3ca7


>>> Premium Download Usenet : Fast and Anonymous (14 days free here)

2 thoughts on The.Gift.2015.1080p.BluRay.x264-DRONES

  1. John Doe Oct 26th, 2015 at 2:12 pm

    Thanks!

  2. felipepeletti Oct 28th, 2015 at 2:05 am

    Advanced info:

    General
    Unique ID : 189506621267150669472502782736678992943 (0x8E91A5CCC5584FF99D9F8C2329733C2F)
    Complete name : C:\Users\felipepeletti\Desktop\fpeletti.therebels.TG20151080.mkv
    Format : Matroska
    Format version : Version 4 / Version 2
    File size : 7.65 GiB
    Duration : 1h 48mn
    Overall bit rate : 10.1 Mbps
    Encoded date : UTC 2015-10-24 06:08:18
    Writing application : mkvmerge v8.3.0 (‘Over the Horizon’) 64bit
    Writing library : libebml v1.3.1 + libmatroska v1.4.2
    DURATION : 01:48:11.488000000
    NUMBER_OF_FRAMES : 608577
    NUMBER_OF_BYTES : 1224456924
    _STATISTICS_WRITING_APP : mkvmerge v8.3.0 (‘Over the Horizon’) 64bit
    _STATISTICS_WRITING_DATE_UTC : 2015-10-24 06:08:18
    _STATISTICS_TAGS : BPS DURATION NUMBER_OF_FRAMES NUMBER_OF_BYTES

    Video
    ID : 1
    Format : AVC
    Format/Info : Advanced Video Codec
    Format profile : [email protected]
    Format settings, CABAC : Yes
    Format settings, ReFrames : 5 frames
    Codec ID : V_MPEG4/ISO/AVC
    Duration : 1h 48mn
    Bit rate : 8 615 Kbps
    Width : 1 920 pixels
    Height : 800 pixels
    Display aspect ratio : 2.40:1
    Frame rate mode : Constant
    Frame rate : 23.976 fps
    Color space : YUV
    Chroma subsampling : 4:2:0
    Bit depth : 8 bits
    Scan type : Progressive
    Bits/(Pixel*Frame) : 0.234
    Stream size : 6.35 GiB (83%)
    Writing library : x264 core 148 r2638 7599210
    Encoding settings : cabac=1 / ref=5 / deblock=1:0:0 / analyse=0x3:0x133 / me=umh / subme=7 / psy=1 / psy_rd=1.00:0.00 / mixed_ref=1 / me_range=16 / chroma_me=1 / trellis=1 / 8x8dct=1 / cqm=0 / deadzone=21,11 / fast_pskip=0 / chroma_qp_offset=-2 / threads=18 / lookahead_threads=3 / sliced_threads=0 / nr=0 / decimate=1 / interlaced=0 / bluray_compat=0 / constrained_intra=0 / bframes=3 / b_pyramid=2 / b_adapt=1 / b_bias=0 / direct=1 / weightb=1 / open_gop=0 / weightp=2 / keyint=250 / keyint_min=23 / scenecut=40 / intra_refresh=0 / rc_lookahead=40 / rc=2pass / mbtree=1 / bitrate=8615 / ratetol=1.0 / qcomp=0.60 / qpmin=0 / qpmax=69 / qpstep=4 / cplxblur=20.0 / qblur=0.5 / ip_ratio=1.40 / aq=1:1.00
    Language : English
    Default : Yes
    Forced : No
    DURATION : 01:48:11.454000000
    NUMBER_OF_FRAMES : 155639
    NUMBER_OF_BYTES : 6983807366
    _STATISTICS_WRITING_APP : mkvmerge v8.3.0 (‘Over the Horizon’) 64bit
    _STATISTICS_WRITING_DATE_UTC : 2015-10-24 06:08:18
    _STATISTICS_TAGS : BPS DURATION NUMBER_OF_FRAMES NUMBER_OF_BYTES

    Audio
    ID : 2
    Format : DTS
    Format/Info : Digital Theater Systems
    Mode : 16
    Format settings, Endianness : Big
    Codec ID : A_DTS
    Duration : 1h 48mn
    Bit rate mode : Constant
    Bit rate : 1 509 Kbps
    Channel(s) : 6 channels
    Channel positions : Front: L C R, Side: L R, LFE
    Sampling rate : 48.0 KHz
    Bit depth : 24 bits
    Compression mode : Lossy
    Stream size : 1.14 GiB (15%)
    Language : English
    Default : Yes
    Forced : No

    Menu
    00:00:00.000 : en:00:00:00.000
    00:05:55.355 : en:00:05:55.355
    00:09:36.993 : en:00:09:36.993
    00:18:31.027 : en:00:18:31.027
    00:23:41.670 : en:00:23:41.670
    00:28:26.079 : en:00:28:26.079
    00:34:30.568 : en:00:34:30.568
    00:39:48.428 : en:00:39:48.428
    00:44:23.995 : en:00:44:23.995
    00:49:57.203 : en:00:49:57.203
    00:55:54.309 : en:00:55:54.309
    01:01:51.291 : en:01:01:51.291
    01:05:24.212 : en:01:05:24.212
    01:11:21.736 : en:01:11:21.736
    01:17:12.503 : en:01:17:12.503
    01:21:44.274 : en:01:21:44.274
    01:26:29.059 : en:01:26:29.059
    01:30:06.276 : en:01:30:06.276
    01:37:55.036 : en:01:37:55.036
    01:42:56.629 : en:01:42:56.629





Shoutbox

Links to websites similar to DDLValley are prohibited and may get you banned.
Your code: