web analytics

Categories

MotoGP.2016.Qatar.Race.HDTV.720p.x264-DDLV

Posted by on Mar 20th, 2016
>>Download MotoGP.2016.Qatar.Race.HDTV.720p.x264-DDLV Full, Fast, Free, Anonymous, Secure, Untraceable download with Usenet

General
Complete name                            : G:\Piranha\MotoGP\MotoGP.2016.Qatar.Race.HDTV.x264-DDLV\03 - MotoGP RACE - Qatar.mp4
Format                                   : MPEG-4
Format profile                           : Base Media / Version 2
Codec ID                                 : mp42 (mp42/isom)
File size                                : 884 MiB
Duration                                 : 50mn 44s
Overall bit rate mode                    : Variable
Overall bit rate                         : 2 437 Kbps
Encoded date                             : UTC 2016-03-20 18:48:30
Tagged date                              : UTC 2016-03-20 18:48:38
Video
ID                                       : 1
Format                                   : AVC
Format/Info                              : Advanced Video Codec
Format profile                           : [email protected]
Format settings, CABAC                   : Yes
Format settings, ReFrames                : 2 frames
Format settings, GOP                     : M=1, N=50
Codec ID                                 : avc1
Codec ID/Info                            : Advanced Video Coding
Duration                                 : 50mn 44s
Bit rate                                 : 2 400 Kbps
Width                                    : 1 280 pixels
Height                                   : 720 pixels
Display aspect ratio                     : 16:9
Frame rate mode                          : Variable
Frame rate                               : 25.000 fps
Minimum frame rate                       : 5.000 fps
Maximum frame rate                       : 25.000 fps
Color space                              : YUV
Chroma subsampling                       : 4:2:0
Bit depth                                : 8 bits
Scan type                                : Progressive
Bits/(Pixel*Frame)                       : 0.104
Stream size                              : 848 MiB (96%)
Writing library                          : x264 core 120 r557+360M 04cc53c
Encoding settings                        : cabac=1 / ref=2 / deblock=1:0:0 / analyse=0x1:0x11 / me=hex / subme=4 / psy=1 / psy_rd=1.00:0.00 / mixed_ref=0 / me_range=16 / chroma_me=1 / trellis=1 / 8x8dct=0 / cqm=0 / deadzone=21,11 / fast_pskip=1 / chroma_qp_offset=0 / threads=48 / sliced_threads=0 / nr=0 / decimate=1 / interlaced=0 / bluray_compat=0 / constrained_intra=0 / bframes=0 / weightp=1 / keyint=50 / keyint_min=26 / scenecut=0 / intra_refresh=0 / keytime=0 / rc_lookahead=20 / rc=cbr / mbtree=1 / bitrate=2400 / ratetol=1.0 / qcomp=0.60 / qpmin=10 / qpmax=51 / qpstep=4 / vbv_maxrate=2400 / vbv_bufsize=4800 / nal_hrd=none / ip_ratio=1.40 / aq=1:1.00
Encoded date                             : UTC 2016-03-20 18:48:30
Tagged date                              : UTC 2016-03-20 18:48:38
Audio
ID                                       : 2
Format                                   : AAC
Format/Info                              : Advanced Audio Codec
Format profile                           : LC
Codec ID                                 : 40
Duration                                 : 50mn 44s
Bit rate mode                            : Variable
Bit rate                                 : 96.0 Kbps
Channel(s)                               : 2 channels
Channel positions                        : Front: L R
Sampling rate                            : 44.1 KHz
Frame rate                               : 43.066 fps (1024 spf)
Compression mode                         : Lossy
Stream size                              : 34.8 MiB (4%)
Title                                    : Stereo
Encoded date                             : UTC 2016-03-20 18:48:30
Tagged date                              : UTC 2016-03-20 18:48:38

Uploaded.net
http://uploaded.net/file/rvzl8ixb
http://uploaded.net/file/4dl36yd4
http://uploaded.net/file/bystbaad
http://uploaded.net/file/fzvn23ej
http://uploaded.net/file/7cmbs0jo
http://uploaded.net/file/epuzn6b7
http://uploaded.net/file/sdy2eufg
http://uploaded.net/file/czsjml39
http://uploaded.net/file/i2j8itqv
http://uploaded.net/file/zzw7dhex
http://uploaded.net/file/gasesip2
http://uploaded.net/file/j3nek47j
http://uploaded.net/file/z32kubd8

Rapidgator.net
http://rapidgator.net/file/aa1a8130af286e80a3e7c76696b7023a/MtG206QtrRcHDV70x6DV.part01.rar.html
http://rapidgator.net/file/8d33f09502da5b4f0803093f1c0d7b97/MtG206QtrRcHDV70x6DV.part02.rar.html
http://rapidgator.net/file/2dbbbef0ded506b4ecfe28154de6fe1c/MtG206QtrRcHDV70x6DV.part03.rar.html
http://rapidgator.net/file/66168e7df9f3dbac64a06d4e69bf077b/MtG206QtrRcHDV70x6DV.part04.rar.html
http://rapidgator.net/file/e8b87e426701f86e318172f3466b4f1d/MtG206QtrRcHDV70x6DV.part05.rar.html
http://rapidgator.net/file/c3fc516be053dafe901788d7044fba73/MtG206QtrRcHDV70x6DV.part06.rar.html
http://rapidgator.net/file/4e3d1e28596637c051f28674ec21da74/MtG206QtrRcHDV70x6DV.part07.rar.html
http://rapidgator.net/file/1fc8b09beb9da8c0b76b7b61e6072b51/MtG206QtrRcHDV70x6DV.part08.rar.html
http://rapidgator.net/file/87f192af07b6165c9965ea0dea18d1b3/MtG206QtrRcHDV70x6DV.part09.rar.html
http://rapidgator.net/file/11553858076c3259517349d8365ab71c/MtG206QtrRcHDV70x6DV.part10.rar.html
http://rapidgator.net/file/e1b65f2a43a4540b9009ab9f4c7a649b/MtG206QtrRcHDV70x6DV.part11.rar.html
http://rapidgator.net/file/38b1e12c25eeb78ab44bbe85efb1e27b/MtG206QtrRcHDV70x6DV.part12.rar.html
http://rapidgator.net/file/03d1e65e572a4dee27855f6818959e6a/MtG206QtrRcHDV70x6DV.part13.rar.html


>>> Premium Download Usenet : Fast and Anonymous (14 days free here)
Posted in: Sports

No thoughts on MotoGP.2016.Qatar.Race.HDTV.720p.x264-DDLV





Shoutbox

Links to websites similar to DDLValley are prohibited and may get you banned.
Your code: