web analytics

Categories

ATP.2016.Wimbledon.R2.M23.Pouille.vs.Young.NoComm.720p

Posted by on Jul 3rd, 2016
>>Download ATP.2016.Wimbledon.R2.M23.Pouille.vs.Young.NoComm.720p Full, Fast, Free, Anonymous, Secure, Untraceable download with Usenet

General
Unique ID                                : 183200304658733740840072397759315263626 (0x89D31862B7B8AA589755BE33FA25408A)
Complete name                            : G:\Tennis\New folder\ATP.2016.Wimbledon.R2.M23.Pouille.vs.Young.NoComm.720p\ATP.2016.Wimbledon.R2.M23.Pouille.vs.Young.NoComm.720p.mkv
Format                                   : Matroska
Format version                           : Version 4 / Version 2
File size                                : 3.56 GiB
Duration                                 : 2h 2mn
Overall bit rate                         : 4 171 Kbps
Encoded date                             : UTC 2016-07-02 13:53:41
Writing application                      : mkvmerge v8.2.0 ('World of Adventure') 64bit
Writing library                          : libebml v1.3.1 + libmatroska v1.4.2
Video
ID                                       : 1
Format                                   : AVC
Format/Info                              : Advanced Video Codec
Format profile                           : [email protected]
Format settings, CABAC                   : Yes
Format settings, ReFrames                : 2 frames
Codec ID                                 : V_MPEG4/ISO/AVC
Duration                                 : 2h 2mn
Bit rate                                 : 4 106 Kbps
Nominal bit rate                         : 4 436 Kbps
Width                                    : 1 152 pixels
Original width                           : 1 280 pixels
Height                                   : 648 pixels
Original height                          : 720 pixels
Display aspect ratio                     : 16:9
Frame rate mode                          : Variable
Frame rate                               : 29.743 fps
Original frame rate                      : 30.000 fps
Color space                              : YUV
Chroma subsampling                       : 4:2:0
Bit depth                                : 8 bits
Scan type                                : Progressive
Bits/(Pixel*Frame)                       : 0.185
Stream size                              : 3.50 GiB (98%)
Writing library                          : x264 core 115 r1995M 5a37283
Encoding settings                        : cabac=1 / ref=2 / deblock=1:0:0 / analyse=0x3:0x113 / me=hex / subme=2 / psy=1 / psy_rd=1.00:0.00 / mixed_ref=0 / me_range=16 / chroma_me=1 / trellis=0 / 8x8dct=1 / cqm=0 / deadzone=21,11 / fast_pskip=1 / chroma_qp_offset=0 / threads=4 / sliced_threads=0 / nr=250 / decimate=1 / interlaced=0 / bluray_compat=0 / constrained_intra=0 / bframes=0 / weightp=1 / keyint=250 / keyint_min=25 / scenecut=40 / intra_refresh=0 / rc_lookahead=10 / rc=2pass / mbtree=1 / bitrate=4436 / ratetol=1.0 / qcomp=0.60 / qpmin=5 / qpmax=69 / qpstep=4 / cplxblur=20.0 / qblur=0.5 / ip_ratio=1.40 / aq=1:1.00
Default                                  : Yes
Forced                                   : No
Audio
ID                                       : 2
Format                                   : AAC
Format/Info                              : Advanced Audio Codec
Format profile                           : HE-AAC / LC
Codec ID                                 : A_AAC
Duration                                 : 2h 2mn
Bit rate                                 : 62.6 Kbps
Channel(s)                               : 1 channel
Channel positions                        : Front: C
Sampling rate                            : 48.0 KHz / 24.0 KHz
Frame rate                               : 23.438 fps (1024 spf)
Compression mode                         : Lossy
Delay relative to video                  : 39ms
Stream size                              : 54.7 MiB (2%)
Default                                  : Yes
Forced                                   : No

Uploaded.net
http://uploaded.net/file/pw0j35s6
http://uploaded.net/file/i6kn8eq2
http://uploaded.net/file/uet2s7o1
http://uploaded.net/file/8hnud8jj
http://uploaded.net/file/polpchd9
http://uploaded.net/file/54g80dd3
http://uploaded.net/file/9zn54vn4
http://uploaded.net/file/ireffcmd
http://uploaded.net/file/u2ywiq1q
http://uploaded.net/file/6y9m01hg
http://uploaded.net/file/ckq82s6e
http://uploaded.net/file/sot18jh6
http://uploaded.net/file/zahzj9iq
http://uploaded.net/file/yfyh1wgd
http://uploaded.net/file/03n72lo7
http://uploaded.net/file/2znl80kd
http://uploaded.net/file/duex3xc0
http://uploaded.net/file/pjpzf3mc
http://uploaded.net/file/fyz2d8f6
http://uploaded.net/file/zl6f2aht
http://uploaded.net/file/foqcld66
http://uploaded.net/file/4zu726ii
http://uploaded.net/file/006becst
http://uploaded.net/file/3tev97c7
http://uploaded.net/file/ore2l7vc
http://uploaded.net/file/ocvinusc

Rapidgator.net
http://rapidgator.net/file/3872917a4b7c91657c1aaadff179da67/AP21WM3PYN70.part01.rar.html
http://rapidgator.net/file/e1b178ef4933ca79133949f549448fd4/AP21WM3PYN70.part02.rar.html
http://rapidgator.net/file/434aa0f07357cc67eed981b880e48603/AP21WM3PYN70.part03.rar.html
http://rapidgator.net/file/04740c895361bd74a639f7eaaa5ceaa4/AP21WM3PYN70.part04.rar.html
http://rapidgator.net/file/51cdc35ad3f69b0fea49a4a4f5ce0d39/AP21WM3PYN70.part05.rar.html
http://rapidgator.net/file/9874d86b87a6a83e8fbaf286d23241ff/AP21WM3PYN70.part06.rar.html
http://rapidgator.net/file/c671a608b65d044b81db5889d67cd225/AP21WM3PYN70.part07.rar.html
http://rapidgator.net/file/0b218870b13178d255508a4bf4b329a8/AP21WM3PYN70.part08.rar.html
http://rapidgator.net/file/77f9b7248630ae5fab995d3908a7a1c4/AP21WM3PYN70.part09.rar.html
http://rapidgator.net/file/9e976f5e77e048433fab4d61c72c8034/AP21WM3PYN70.part10.rar.html
http://rapidgator.net/file/08860c6bc6997b26dbace397f7c26238/AP21WM3PYN70.part11.rar.html
http://rapidgator.net/file/4cb23ba50df11052a9589c54e713a735/AP21WM3PYN70.part12.rar.html
http://rapidgator.net/file/b0e3248fcbabc59b31f833fa0087511b/AP21WM3PYN70.part13.rar.html
http://rapidgator.net/file/c2993c2764a8adff840943cf663ae6e0/AP21WM3PYN70.part14.rar.html
http://rapidgator.net/file/22693f77c7e2e0f8fa1025242904e5c4/AP21WM3PYN70.part15.rar.html
http://rapidgator.net/file/4e75e408d06d4b2dd40def2ec714cebe/AP21WM3PYN70.part16.rar.html
http://rapidgator.net/file/65e4a4bab40eed4738f604e4f024d9b1/AP21WM3PYN70.part17.rar.html
http://rapidgator.net/file/1f14f6dbf300026122c4a148710dd8cf/AP21WM3PYN70.part18.rar.html
http://rapidgator.net/file/bb5fc6dd427a44507dadceb08b866a0f/AP21WM3PYN70.part19.rar.html
http://rapidgator.net/file/449e6eb7d1f32df087c6c83d64b0e747/AP21WM3PYN70.part20.rar.html
http://rapidgator.net/file/fea925bcf329c9ead89d754c03ee4fa6/AP21WM3PYN70.part21.rar.html
http://rapidgator.net/file/8db5254b7238fde11e92a58d57cb358f/AP21WM3PYN70.part22.rar.html
http://rapidgator.net/file/dbd6492c919436453729495336ceeafb/AP21WM3PYN70.part23.rar.html
http://rapidgator.net/file/eb16250eac374f430936edf27e6463f5/AP21WM3PYN70.part24.rar.html
http://rapidgator.net/file/6813da5a63d7bc1dd25f6393f9960359/AP21WM3PYN70.part25.rar.html
http://rapidgator.net/file/8d6a1026fb2932f99b2c3d12df5a0385/AP21WM3PYN70.part26.rar.html

go4up.com
http://go4up.com/dl/1112432148948d
http://go4up.com/dl/ae9803ac7a5316
http://go4up.com/dl/85fa8f80ab8242
http://go4up.com/dl/8fb3718e8ab3a5
http://go4up.com/dl/93ea479c0e2110
http://go4up.com/dl/3db189cda34166
http://go4up.com/dl/4baf2c64fba42a
http://go4up.com/dl/02cd3a5f9ec68c
http://go4up.com/dl/520950a2118ef3
http://go4up.com/dl/497b3aabe5781e
http://go4up.com/dl/61557d416e5fd6
http://go4up.com/dl/3b7d93863dceb9
http://go4up.com/dl/9f3c689185cefe
http://go4up.com/dl/cd1f98d2d8557c
http://go4up.com/dl/ee078a6a11adae
http://go4up.com/dl/de2ab2c33a0af9
http://go4up.com/dl/873a500c04bec5
http://go4up.com/dl/32e1ead2e3fa22
http://go4up.com/dl/3373095d8b931b
http://go4up.com/dl/af3bed9bfbdd67
http://go4up.com/dl/cee5af23d73881
http://go4up.com/dl/53cdfcf218338d
http://go4up.com/dl/31f3404420b123
http://go4up.com/dl/dc7a5422087e6f
http://go4up.com/dl/4e143e82125164
http://go4up.com/dl/a1e399ffcab746


>>> Premium Download Usenet : Fast and Anonymous (14 days free here)
Posted in: Sports

No thoughts on ATP.2016.Wimbledon.R2.M23.Pouille.vs.Young.NoComm.720p





Shoutbox

Links to websites similar to DDLValley are prohibited and may get you banned.
Your code: